<?xml version="1.0" standalone="no"?>
<!DOCTYPE svg PUBLIC "-//W3C//DTD SVG 1.1//EN" "http://www.w3.org/Graphics/SVG/1.1/DTD/svg11.dtd" >
<svg>
<metadata>
Created by FontForge 20090622 at Mon Feb 17 06:08:29 2020
 By deploy user
Copyright 1988-93,  Bear Rock Technologies Corp.
</metadata>
<defs>
<font id="C39HrP48DhTt" horiz-adv-x="160" >
  <font-face 
    font-family="C39HrP48DhTt"
    font-weight="400"
    font-stretch="normal"
    units-per-em="1000"
    panose-1="0 0 0 0 0 0 0 0 0 0"
    ascent="800"
    descent="-200"
    x-height="800"
    cap-height="800"
    bbox="0 -200 750 800"
    underline-thickness="20"
    underline-position="-123"
    unicode-range="U+0020-U+00A0"
  />
<missing-glyph horiz-adv-x="800" 
d="M50 0v800h700v-800h-700zM700 50v700h-600v-700h600z" />
    <glyph glyph-name=".notdef" horiz-adv-x="800" 
d="M50 0v800h700v-800h-700zM700 50v700h-600v-700h600z" />
    <glyph glyph-name=".null" horiz-adv-x="0" 
 />
    <glyph glyph-name="nonmarkingreturn" 
 />
    <glyph glyph-name="space" unicode=" " 
 />
    <glyph glyph-name="exclam" unicode="!" 
d="M4 50h-4v750h4v-750zM44 50h-4v750h4v-750zM100 800h24v-750h-24v750zM60 800h24v-750h-24v750zM144 50h-4v750h4v-750z" />
    <glyph glyph-name="dollar" unicode="$" 
d="M4 50h-4v750h4v-750zM44 50h-4v750h4v-750zM144 50h-4v750h4v-750zM84 50h-4v750h4v-750zM124 50h-4v750h4v-750zM81 -23v-12q15 -2 29.5 -11t14.5 -24v-4h-24q0 10 -5 13t-15 3v-41q23 -8 33 -15q16 -11 16 -30q0 -18 -14.5 -29t-34.5 -13v-12h-19v12h-5q-16 0 -30 9.5
t-14 25.5v4h25q0 -16 20 -16h4v46q-22 7 -32 14q-17 11 -17 29q0 20 14 29.5t35 9.5v12h19zM81 -124v-39q24 0 24 18q0 9 -7 13.5t-17 7.5zM62 -94v36q-15 0 -19.5 -3.5t-4.5 -12.5q0 -7 3.5 -10.5t20.5 -9.5z" />
    <glyph glyph-name="percent" unicode="%" 
d="M4 50h-4v750h4v-750zM24 50h-4v750h4v-750zM144 50h-4v750h4v-750zM64 50h-4v750h4v-750zM104 50h-4v750h4v-750zM45 -20q26 0 26 -29q0 -12 -7.5 -20.5t-18.5 -8.5q-13 0 -20 8t-7 21t7 21t20 8zM113 -23h12v-14l-93 -161h-13v13zM100 -142q27 0 27 -30q0 -12 -7 -20
t-20 -8q-27 0 -27 28q0 30 27 30zM45 -34q-11 0 -11 -15t11 -15q10 0 10 15t-10 15zM100 -156q-10 0 -10 -16q0 -14 10 -14q8 0 9 5.5t1 8.5q0 16 -10 16z" />
    <glyph glyph-name="asterisk" unicode="*" 
d="M4 50h-4v750h4v-750zM44 50h-4v750h4v-750zM100 800h24v-750h-24v750zM60 800h24v-750h-24v750zM144 50h-4v750h4v-750zM81 -93l40 16l10 -25l-42 -12l29 -34l-22 -14l-23 37l-26 -37l-19 14l27 34l-41 13l9 24l39 -16l-2 45h24z" />
    <glyph glyph-name="plus" unicode="+" 
d="M4 50h-4v750h4v-750zM44 50h-4v750h4v-750zM144 50h-4v750h4v-750zM64 50h-4v750h4v-750zM104 50h-4v750h4v-750zM59 -94v44h25v-44h48v-25h-48v-51h-25v51h-48v25h48z" />
    <glyph glyph-name="hyphen" unicode="-" 
d="M120 799h24v-750h-24v750zM44 50h-4v750h4v-750zM4 50h-4v750h4v-750zM64 48h-4v750h4v-750zM80 800h24v-750h-24v750zM11 -119v25h121v-25h-121z" />
    <glyph glyph-name="period" unicode="." 
d="M0 800h24v-750h-24v750zM64 50h-4v750h4v-750zM84 50h-4v750h4v-750zM144 50h-4v750h4v-750zM100 800h24v-750h-24v750zM49 -161h46v-37h-46v37z" />
    <glyph glyph-name="slash" unicode="/" 
d="M4 50h-4v750h4v-750zM44 50h-4v750h4v-750zM144 50h-4v750h4v-750zM84 50h-4v750h4v-750zM104 50h-4v750h4v-750zM96 -20h25l-73 -178h-24z" />
    <glyph glyph-name="zero" unicode="0" 
d="M100 800h24v-750h-24v750zM24 50h-4v750h4v-750zM4 50h-4v750h4v-750zM144 50h-4v750h4v-750zM60 800h24v-750h-24v750zM72 -18q21 0 33 -5t17 -18.5t7 -32.5t2 -32q0 -37 -4 -55t-14 -27q-6 -6 -22 -8t-19 -2q-12 0 -23.5 2.5t-17.5 7.5q-10 10 -13.5 34.5t-3.5 47.5
q0 21 1 33.5t6.5 28t18 21t32.5 5.5zM72 -41q-17 0 -22.5 -2.5t-8.5 -16.5q-1 -11 -1.5 -20.5t-0.5 -16.5v-11q0 -31 1.5 -43.5t5.5 -17t10.5 -6t15.5 -1.5q21 0 26 6.5t6.5 24.5t1.5 37v11q0 22 -2.5 36t-9 17t-22.5 3z" />
    <glyph glyph-name="one" unicode="1" 
d="M0 800h24v-750h-24v750zM44 50h-4v750h4v-750zM84 50h-4v750h4v-750zM104 50h-4v750h4v-750zM120 800h24v-750h-24v750zM81 -51l-45 -39v31l43 36h26v-175h-24v147z" />
    <glyph glyph-name="two" unicode="2" 
d="M20 800h24v-750h-24v750zM4 50h-4v750h4v-750zM84 50h-4v750h4v-750zM104 50h-4v750h4v-750zM120 800h24v-750h-24v750zM122 -175v-23h-103v13q0 30 10 45.5t38 33.5q19 13 21 15q12 11 12 22q0 10 -8 18t-19 8q-13 0 -25.5 -4.5t-25.5 -13.5v26q20 15 47 15
q23 0 39.5 -12.5t16.5 -35.5q0 -21 -15 -36q-6 -6 -32 -23q-15 -10 -23 -19q-12 -13 -12 -26z" />
    <glyph glyph-name="three" unicode="3" 
d="M40 800h24v-750h-24v750zM144 50h-4v750h4v-750zM104 50h-4v750h4v-750zM124 50h-4v750h4v-750zM0 800h24v-750h-24v750zM120 -21v-25l-44 -44q23 0 37 -14t14 -38q0 -27 -20 -41.5t-48 -14.5q-20 0 -45 10v25q20 -13 45 -13q18 0 30.5 8.5t12.5 26.5q0 16 -11 24t-29 8
h-19v19l45 46h-74v23h106z" />
    <glyph glyph-name="four" unicode="4" 
d="M120 799h24v-750h-24v750zM24 50h-4v750h4v-750zM4 50h-4v750h4v-750zM104 48h-4v750h4v-750zM60 800h24v-750h-24v750zM104 -137h22v-23h-22v-38h-25v38h-66v26l52 111h25l-53 -114h42v36h25v-36z" />
    <glyph glyph-name="five" unicode="5" 
d="M0 800h24v-750h-24v750zM44 50h-4v750h4v-750zM124 50h-4v750h4v-750zM144 50h-4v750h4v-750zM80 800h24v-750h-24v750zM50 -44l-3 -34h6q30 0 49 -13.5t19 -42.5q0 -30 -23.5 -47t-66.5 -17h-8v22h14q24 0 42 10t18 33q0 20 -13.5 26.5t-30.5 6.5l-30 -2l5 81h89v-23
h-67z" />
    <glyph glyph-name="six" unicode="6" 
d="M20 800h24v-750h-24v750zM4 50h-4v750h4v-750zM124 50h-4v750h4v-750zM144 50h-4v750h4v-750zM80 800h24v-750h-24v750zM82 -21h31l-18 -18q-15 -16 -28 -34l-12 -15q9 4 22 4q24 0 39 -17t15 -40q0 -27 -16 -42t-42 -15q-59 0 -59 59q0 39 24 67zM72 -106q-15 0 -24 -10
t-9 -24q0 -36 33 -36q34 0 34 35t-34 35z" />
    <glyph glyph-name="seven" unicode="7" 
d="M120 799h24v-750h-24v750zM24 50h-4v750h4v-750zM4 50h-4v750h4v-750zM64 48h-4v750h4v-750zM80 800h24v-750h-24v750zM103 -46h-85v23h115q0 -21 -5 -31.5t-18 -23.5q-21 -26 -30 -42q-12 -23 -12 -50v-28h-25v28q0 27 12 53q9 20 30 45l9 10q9 11 9 16z" />
    <glyph glyph-name="eight" unicode="8" 
d="M0 800h24v-750h-24v750zM44 50h-4v750h4v-750zM84 50h-4v750h4v-750zM144 50h-4v750h4v-750zM100 800h24v-750h-24v750zM72 -18q20 0 36 -9.5t16 -29.5q0 -14 -7.5 -22.5t-22.5 -18.5q19 -9 28 -21t9 -31q0 -25 -16 -36.5t-43 -11.5t-42.5 11t-15.5 37q0 18 10 30.5
t27 21.5q-16 10 -21 16q-9 11 -9 25q0 20 15 29.5t36 9.5zM72 -176q14 0 24 7t10 21q0 13 -10 22q-6 5 -24 15q-16 -8 -18 -10q-15 -11 -15 -27q0 -13 9.5 -20.5t23.5 -7.5zM72 -41q-26 0 -26 -18q0 -9 8 -16t18 -11q11 4 17 9q10 8 10 18q0 9 -8.5 13.5t-18.5 4.5z" />
    <glyph glyph-name="nine" unicode="9" 
d="M20 800h24v-750h-24v750zM4 50h-4v750h4v-750zM84 50h-4v750h4v-750zM144 50h-4v750h4v-750zM100 800h24v-750h-24v750zM62 -198h-33l31 32q18 20 28 35l-1 1q-8 -5 -20 -5q-24 0 -39.5 16.5t-15.5 39.5q0 27 16 43t44 16q58 0 58 -62q0 -29 -22 -62q-12 -17 -46 -54z
M72 -43q-35 0 -35 -35q0 -15 9.5 -24.5t25.5 -9.5q33 0 33 34q0 35 -33 35z" />
    <glyph glyph-name="question" unicode="?" horiz-adv-x="1000" 
 />
    <glyph glyph-name="A" unicode="A" 
d="M0 800h24v-750h-24v750zM44 50h-4v750h4v-750zM64 50h-4v750h4v-750zM104 50h-4v750h4v-750zM120 800h24v-750h-24v750zM96 -151h-47l-12 -47h-25l45 163h31l44 -163h-25zM90 -129l-17 71l-19 -71h36z" />
    <glyph glyph-name="B" unicode="B" 
d="M20 800h24v-750h-24v750zM4 50h-4v750h4v-750zM64 50h-4v750h4v-750zM104 50h-4v750h4v-750zM120 800h24v-750h-24v750zM79 -198h-63v163h53q26 0 43.5 -11t17.5 -36q0 -23 -21 -31q11 -3 17.5 -13.5t6.5 -23.5q0 -21 -13 -34.5t-41 -13.5zM41 -122v-53h34q16 0 25 5
t9 20t-10.5 21.5t-25.5 6.5h-32zM41 -58v-44h33q19 0 25 5t6 16q0 14 -9.5 18.5t-25.5 4.5h-29z" />
    <glyph glyph-name="C" unicode="C" 
d="M40 800h24v-750h-24v750zM144 50h-4v750h4v-750zM84 50h-4v750h4v-750zM124 50h-4v750h4v-750zM0 800h24v-750h-24v750zM117 -70h-24q-2 16 -21 16q-17 0 -23.5 -19t-6.5 -41t6.5 -42t23.5 -20q19 0 21 18h24q0 -18 -13 -29t-31 -11q-29 0 -42.5 25.5t-13.5 57.5
q0 35 12.5 59.5t43.5 24.5q18 0 31 -11t13 -28z" />
    <glyph glyph-name="D" unicode="D" 
d="M120 799h24v-750h-24v750zM24 50h-4v750h4v-750zM4 50h-4v750h4v-750zM104 48h-4v750h4v-750zM40 800h24v-750h-24v750zM22 -198v163h15q36 0 60.5 -24.5t24.5 -60.5t-23 -57t-59 -21h-18zM46 -58v-117q24 0 37.5 15.5t13.5 39.5t-14 43t-37 19z" />
    <glyph glyph-name="E" unicode="E" 
d="M0 800h24v-750h-24v750zM44 50h-4v750h4v-750zM124 50h-4v750h4v-750zM144 50h-4v750h4v-750zM60 800h24v-750h-24v750zM48 -58v-44h63v-22h-63v-51h75v-23h-100v163h98v-23h-73z" />
    <glyph glyph-name="F" unicode="F" 
d="M20 800h24v-750h-24v750zM4 50h-4v750h4v-750zM124 50h-4v750h4v-750zM144 50h-4v750h4v-750zM60 800h24v-750h-24v750zM53 -58v-44h49v-22h-49v-74h-25v163h85v-23h-60z" />
    <glyph glyph-name="G" unicode="G" 
d="M120 799h24v-750h-24v750zM24 50h-4v750h4v-750zM4 50h-4v750h4v-750zM44 48h-4v750h4v-750zM80 800h24v-750h-24v750zM100 -131h-33v22h58v-79q-23 -10 -47 -10q-34 0 -48.5 23.5t-14.5 60.5q0 38 14.5 60.5t51.5 22.5q18 0 31 -10t13 -23l-25 -2q-2 12 -19 12
q-24 0 -32.5 -16t-8.5 -42q0 -29 7.5 -46.5t32.5 -17.5q5 0 11 1.5t9 2.5v41z" />
    <glyph glyph-name="H" unicode="H" 
d="M0 800h24v-750h-24v750zM44 50h-4v750h4v-750zM64 50h-4v750h4v-750zM144 50h-4v750h4v-750zM100 800h24v-750h-24v750zM99 -125h-55v-73h-24v163h24v-67h55v67h24v-163h-24v73z" />
    <glyph glyph-name="I" unicode="I" 
d="M20 800h24v-750h-24v750zM4 50h-4v750h4v-750zM64 50h-4v750h4v-750zM144 50h-4v750h4v-750zM100 800h24v-750h-24v750zM84 -58v-117h29v-23h-83v23h29v117h-25v23h74v-23h-24z" />
    <glyph glyph-name="J" unicode="J" 
d="M100 800h24v-750h-24v750zM24 50h-4v750h4v-750zM4 50h-4v750h4v-750zM144 50h-4v750h4v-750zM40 800h24v-750h-24v750zM89 -33h25v-118q0 -47 -42 -47t-42 41v14h25v-15q0 -18 17 -18q12 0 14.5 7.5t2.5 21.5v114z" />
    <glyph glyph-name="K" unicode="K" 
d="M0 800h24v-750h-24v750zM44 50h-4v750h4v-750zM64 50h-4v750h4v-750zM84 50h-4v750h4v-750zM120 800h24v-750h-24v750zM44 -102l66 67h32l-79 -78l84 -85h-34l-69 73v-73h-25v163h25v-67z" />
    <glyph glyph-name="L" unicode="L" 
d="M20 800h24v-750h-24v750zM4 50h-4v750h4v-750zM64 50h-4v750h4v-750zM84 50h-4v750h4v-750zM120 800h24v-750h-24v750zM45 -175h84v-23h-108v163h24v-140z" />
    <glyph glyph-name="M" unicode="M" 
d="M40 800h24v-750h-24v750zM144 50h-4v750h4v-750zM84 50h-4v750h4v-750zM104 50h-4v750h4v-750zM0 800h24v-750h-24v750zM92 -35h38v-163h-25v136l-23 -83h-19l-23 83v-136h-25v163h38l19 -63z" />
    <glyph glyph-name="N" unicode="N" 
d="M120 799h24v-750h-24v750zM24 50h-4v750h4v-750zM4 50h-4v750h4v-750zM84 48h-4v750h4v-750zM40 800h24v-750h-24v750zM103 -35h22v-163h-26l-59 123v-123h-23v163h29l56 -118z" />
    <glyph glyph-name="O" unicode="O" 
d="M0 800h24v-750h-24v750zM44 50h-4v750h4v-750zM104 50h-4v750h4v-750zM144 50h-4v750h4v-750zM60 800h24v-750h-24v750zM72 -31q29 0 45 -29q13 -23 13 -54q0 -32 -13 -55q-16 -29 -45 -29q-28 0 -42.5 25.5t-14.5 58.5q0 29 14.5 56t42.5 27zM72 -54q-14 0 -23 -15
t-9 -47q0 -23 6.5 -41.5t25.5 -18.5q18 0 27 22q6 16 6 38q0 25 -5 39q-8 23 -28 23z" />
    <glyph glyph-name="P" unicode="P" 
d="M20 800h24v-750h-24v750zM4 50h-4v750h4v-750zM104 50h-4v750h4v-750zM144 50h-4v750h4v-750zM60 800h24v-750h-24v750zM19 -198v163h55q26 0 41 -12t15 -37q0 -24 -16 -35.5t-41 -11.5h-29v-67h-25zM44 -108h29q14 0 23 5.5t9 19.5t-8.5 19.5t-23.5 5.5h-29v-50z" />
    <glyph glyph-name="Q" unicode="Q" 
d="M120 799h24v-750h-24v750zM24 50h-4v750h4v-750zM4 50h-4v750h4v-750zM44 48h-4v750h4v-750zM60 800h24v-750h-24v750zM115 -198l-14 18q-13 -10 -29 -10q-28 0 -41.5 23t-13.5 54q0 32 12.5 56t42.5 24q29 0 42 -25t13 -55q0 -19 -1.5 -28.5t-9.5 -20.5l29 -36h-30z
M87 -162l-33 43h29l17 -21q2 9 2 30q0 23 -4 34q-7 20 -26 20q-14 0 -22 -12.5t-8 -41.5q0 -21 6.5 -39t23.5 -18q10 0 15 5z" />
    <glyph glyph-name="R" unicode="R" 
d="M0 800h24v-750h-24v750zM44 50h-4v750h4v-750zM64 50h-4v750h4v-750zM144 50h-4v750h4v-750zM80 800h24v-750h-24v750zM47 -131v-67h-24v163h47q53 0 53 -48q0 -37 -33 -43l43 -72h-29l-37 67h-20zM47 -108h19q32 0 32 26q0 15 -8 19.5t-25 4.5h-18v-50z" />
    <glyph glyph-name="S" unicode="S" 
d="M20 800h24v-750h-24v750zM4 50h-4v750h4v-750zM64 50h-4v750h4v-750zM144 50h-4v750h4v-750zM80 800h24v-750h-24v750zM71 -198q-19 0 -35 11.5t-16 30.5v5h25q0 -25 26 -25q27 0 27 23q0 12 -9 18.5t-27.5 15t-25.5 15.5q-12 12 -12 28q0 20 14.5 32.5t35.5 12.5
q18 0 32.5 -11.5t14.5 -28.5l-25 -3q0 20 -22 20q-11 0 -18 -4.5t-7 -15.5q0 -9 4.5 -13.5t13.5 -8.5l15 -7q22 -11 29 -18q12 -12 12 -32t-15.5 -32.5t-36.5 -12.5z" />
    <glyph glyph-name="T" unicode="T" 
d="M80 800h24v-750h-24v750zM24 50h-4v750h4v-750zM4 50h-4v750h4v-750zM144 50h-4v750h4v-750zM40 800h24v-750h-24v750zM85 -58v-140h-25v140h-44v23h113v-23h-44z" />
    <glyph glyph-name="U" unicode="U" 
d="M0 800h24v-750h-24v750zM64 50h-4v750h4v-750zM84 50h-4v750h4v-750zM104 50h-4v750h4v-750zM120 800h24v-750h-24v750zM17 -33h25v-107q0 -36 30 -36q18 0 24.5 8.5t6.5 27.5v107h24v-109q0 -56 -55 -56t-55 56v109z" />
    <glyph glyph-name="V" unicode="V" 
d="M120 800h24v-750h-24v750zM104 50h-4v750h4v-750zM84 50h-4v750h4v-750zM4 50h-4v750h4v-750zM40 800h24v-750h-24v750zM109 -35h25l-45 -163h-34l-44 163h25l36 -139z" />
    <glyph glyph-name="W" unicode="W" 
d="M60 800h24v-750h-24v750zM144 50h-4v750h4v-750zM104 50h-4v750h4v-750zM124 50h-4v750h4v-750zM0 800h24v-750h-24v750zM63 -98h19l16 -58q8 59 8 107v14h25v-14q0 -20 -1 -40t-4 -38l-13 -71h-26l-14 57l-15 -57h-27l-12 71q-2 15 -3.5 35t-1.5 43v14h24v-14
q0 -48 8 -107z" />
    <glyph glyph-name="X" unicode="X" 
d="M120 799h24v-750h-24v750zM44 50h-4v750h4v-750zM4 50h-4v750h4v-750zM104 48h-4v750h4v-750zM60 800h24v-750h-24v750zM72 -92l30 57h29l-43 -79l43 -84h-29l-30 62l-30 -62h-28l45 84l-45 79h28z" />
    <glyph glyph-name="Y" unicode="Y" 
d="M0 800h24v-750h-24v750zM64 50h-4v750h4v-750zM124 50h-4v750h4v-750zM144 50h-4v750h4v-750zM80 800h24v-750h-24v750zM72 -96l32 61h27l-46 -87v-76h-25v76l-46 87h27z" />
    <glyph glyph-name="Z" unicode="Z" 
d="M40 800h24v-750h-24v750zM4 50h-4v750h4v-750zM124 50h-4v750h4v-750zM144 50h-4v750h4v-750zM80 800h24v-750h-24v750zM55 -175h69v-23h-98v17l64 123h-62v23h88v-19z" />
    <glyph glyph-name="asciicircum" unicode="^" horiz-adv-x="275" 
d="M0 0v795v-795z" />
    <glyph glyph-name="underscore" unicode="_" 
d="M40 800h24v-750h-24v750zM4 50h-4v750h4v-750zM84 50h-4v750h4v-750zM144 50h-4v750h4v-750zM100 800h24v-750h-24v750z" />
    <glyph glyph-name="a" unicode="a" 
d="M0 800h24v-750h-24v750zM44 50h-4v750h4v-750zM64 50h-4v750h4v-750zM104 50h-4v750h4v-750zM120 800h24v-750h-24v750zM96 -151h-47l-12 -47h-25l45 163h31l44 -163h-25zM90 -129l-17 71l-19 -71h36z" />
    <glyph glyph-name="b" unicode="b" 
d="M20 800h24v-750h-24v750zM4 50h-4v750h4v-750zM64 50h-4v750h4v-750zM104 50h-4v750h4v-750zM120 800h24v-750h-24v750zM79 -198h-63v163h53q26 0 43.5 -11t17.5 -36q0 -23 -21 -31q11 -3 17.5 -13.5t6.5 -23.5q0 -21 -13 -34.5t-41 -13.5zM41 -122v-53h34q16 0 25 5
t9 20t-10.5 21.5t-25.5 6.5h-32zM41 -58v-44h33q19 0 25 5t6 16q0 14 -9.5 18.5t-25.5 4.5h-29z" />
    <glyph glyph-name="c" unicode="c" 
d="M40 800h24v-750h-24v750zM144 50h-4v750h4v-750zM84 50h-4v750h4v-750zM124 50h-4v750h4v-750zM0 800h24v-750h-24v750zM117 -70h-24q-2 16 -21 16q-17 0 -23.5 -19t-6.5 -41t6.5 -42t23.5 -20q19 0 21 18h24q0 -18 -13 -29t-31 -11q-29 0 -42.5 25.5t-13.5 57.5
q0 35 12.5 59.5t43.5 24.5q18 0 31 -11t13 -28z" />
    <glyph glyph-name="d" unicode="d" 
d="M120 799h24v-750h-24v750zM24 50h-4v750h4v-750zM4 50h-4v750h4v-750zM104 48h-4v750h4v-750zM40 800h24v-750h-24v750zM22 -198v163h15q36 0 60.5 -24.5t24.5 -60.5t-23 -57t-59 -21h-18zM46 -58v-117q24 0 37.5 15.5t13.5 39.5t-14 43t-37 19z" />
    <glyph glyph-name="e" unicode="e" 
d="M0 800h24v-750h-24v750zM44 50h-4v750h4v-750zM124 50h-4v750h4v-750zM144 50h-4v750h4v-750zM60 800h24v-750h-24v750zM48 -58v-44h63v-22h-63v-51h75v-23h-100v163h98v-23h-73z" />
    <glyph glyph-name="f" unicode="f" 
d="M20 800h24v-750h-24v750zM4 50h-4v750h4v-750zM124 50h-4v750h4v-750zM144 50h-4v750h4v-750zM60 800h24v-750h-24v750zM53 -58v-44h49v-22h-49v-74h-25v163h85v-23h-60z" />
    <glyph glyph-name="g" unicode="g" 
d="M120 799h24v-750h-24v750zM24 50h-4v750h4v-750zM4 50h-4v750h4v-750zM44 48h-4v750h4v-750zM80 800h24v-750h-24v750zM100 -131h-33v22h58v-79q-23 -10 -47 -10q-34 0 -48.5 23.5t-14.5 60.5q0 38 14.5 60.5t51.5 22.5q18 0 31 -10t13 -23l-25 -2q-2 12 -19 12
q-24 0 -32.5 -16t-8.5 -42q0 -29 7.5 -46.5t32.5 -17.5q5 0 11 1.5t9 2.5v41z" />
    <glyph glyph-name="h" unicode="h" 
d="M0 800h24v-750h-24v750zM44 50h-4v750h4v-750zM64 50h-4v750h4v-750zM144 50h-4v750h4v-750zM100 800h24v-750h-24v750zM99 -125h-55v-73h-24v163h24v-67h55v67h24v-163h-24v73z" />
    <glyph glyph-name="i" unicode="i" 
d="M20 800h24v-750h-24v750zM4 50h-4v750h4v-750zM64 50h-4v750h4v-750zM144 50h-4v750h4v-750zM100 800h24v-750h-24v750zM84 -58v-117h29v-23h-83v23h29v117h-25v23h74v-23h-24z" />
    <glyph glyph-name="j" unicode="j" 
d="M100 800h24v-750h-24v750zM24 50h-4v750h4v-750zM4 50h-4v750h4v-750zM144 50h-4v750h4v-750zM40 800h24v-750h-24v750zM89 -33h25v-118q0 -47 -42 -47t-42 41v14h25v-15q0 -18 17 -18q12 0 14.5 7.5t2.5 21.5v114z" />
    <glyph glyph-name="k" unicode="k" 
d="M0 800h24v-750h-24v750zM44 50h-4v750h4v-750zM64 50h-4v750h4v-750zM84 50h-4v750h4v-750zM120 800h24v-750h-24v750zM44 -102l66 67h32l-79 -78l84 -85h-34l-69 73v-73h-25v163h25v-67z" />
    <glyph glyph-name="l" unicode="l" 
d="M20 800h24v-750h-24v750zM4 50h-4v750h4v-750zM64 50h-4v750h4v-750zM84 50h-4v750h4v-750zM120 800h24v-750h-24v750zM45 -175h84v-23h-108v163h24v-140z" />
    <glyph glyph-name="m" unicode="m" 
d="M40 800h24v-750h-24v750zM144 50h-4v750h4v-750zM84 50h-4v750h4v-750zM104 50h-4v750h4v-750zM0 800h24v-750h-24v750zM92 -35h38v-163h-25v136l-23 -83h-19l-23 83v-136h-25v163h38l19 -63z" />
    <glyph glyph-name="n" unicode="n" 
d="M120 799h24v-750h-24v750zM24 50h-4v750h4v-750zM4 50h-4v750h4v-750zM84 48h-4v750h4v-750zM40 800h24v-750h-24v750zM103 -35h22v-163h-26l-59 123v-123h-23v163h29l56 -118z" />
    <glyph glyph-name="o" unicode="o" 
d="M0 800h24v-750h-24v750zM44 50h-4v750h4v-750zM104 50h-4v750h4v-750zM144 50h-4v750h4v-750zM60 800h24v-750h-24v750zM72 -31q29 0 45 -29q13 -23 13 -54q0 -32 -13 -55q-16 -29 -45 -29q-28 0 -42.5 25.5t-14.5 58.5q0 29 14.5 56t42.5 27zM72 -54q-14 0 -23 -15
t-9 -47q0 -23 6.5 -41.5t25.5 -18.5q18 0 27 22q6 16 6 38q0 25 -5 39q-8 23 -28 23z" />
    <glyph glyph-name="p" unicode="p" 
d="M20 800h24v-750h-24v750zM4 50h-4v750h4v-750zM104 50h-4v750h4v-750zM144 50h-4v750h4v-750zM60 800h24v-750h-24v750zM19 -198v163h55q26 0 41 -12t15 -37q0 -24 -16 -35.5t-41 -11.5h-29v-67h-25zM44 -108h29q14 0 23 5.5t9 19.5t-8.5 19.5t-23.5 5.5h-29v-50z" />
    <glyph glyph-name="q" unicode="q" 
d="M120 799h24v-750h-24v750zM24 50h-4v750h4v-750zM4 50h-4v750h4v-750zM44 48h-4v750h4v-750zM60 800h24v-750h-24v750zM115 -198l-14 18q-13 -10 -29 -10q-28 0 -41.5 23t-13.5 54q0 32 12.5 56t42.5 24q29 0 42 -25t13 -55q0 -19 -1.5 -28.5t-9.5 -20.5l29 -36h-30z
M87 -162l-33 43h29l17 -21q2 9 2 30q0 23 -4 34q-7 20 -26 20q-14 0 -22 -12.5t-8 -41.5q0 -21 6.5 -39t23.5 -18q10 0 15 5z" />
    <glyph glyph-name="r" unicode="r" 
d="M0 800h24v-750h-24v750zM44 50h-4v750h4v-750zM64 50h-4v750h4v-750zM144 50h-4v750h4v-750zM80 800h24v-750h-24v750zM47 -131v-67h-24v163h47q53 0 53 -48q0 -37 -33 -43l43 -72h-29l-37 67h-20zM47 -108h19q32 0 32 26q0 15 -8 19.5t-25 4.5h-18v-50z" />
    <glyph glyph-name="s" unicode="s" 
d="M20 800h24v-750h-24v750zM4 50h-4v750h4v-750zM64 50h-4v750h4v-750zM144 50h-4v750h4v-750zM80 800h24v-750h-24v750zM71 -198q-19 0 -35 11.5t-16 30.5v5h25q0 -25 26 -25q27 0 27 23q0 12 -9 18.5t-27.5 15t-25.5 15.5q-12 12 -12 28q0 20 14.5 32.5t35.5 12.5
q18 0 32.5 -11.5t14.5 -28.5l-25 -3q0 20 -22 20q-11 0 -18 -4.5t-7 -15.5q0 -9 4.5 -13.5t13.5 -8.5l15 -7q22 -11 29 -18q12 -12 12 -32t-15.5 -32.5t-36.5 -12.5z" />
    <glyph glyph-name="t" unicode="t" 
d="M80 800h24v-750h-24v750zM24 50h-4v750h4v-750zM4 50h-4v750h4v-750zM144 50h-4v750h4v-750zM40 800h24v-750h-24v750zM85 -58v-140h-25v140h-44v23h113v-23h-44z" />
    <glyph glyph-name="u" unicode="u" 
d="M0 800h24v-750h-24v750zM64 50h-4v750h4v-750zM84 50h-4v750h4v-750zM104 50h-4v750h4v-750zM120 800h24v-750h-24v750zM17 -33h25v-107q0 -36 30 -36q18 0 24.5 8.5t6.5 27.5v107h24v-109q0 -56 -55 -56t-55 56v109z" />
    <glyph glyph-name="v" unicode="v" 
d="M40 800h24v-750h-24v750zM4 50h-4v750h4v-750zM84 50h-4v750h4v-750zM104 50h-4v750h4v-750zM120 800h24v-750h-24v750zM109 -35h25l-45 -163h-34l-44 163h25l36 -139z" />
    <glyph glyph-name="w" unicode="w" 
d="M60 800h24v-750h-24v750zM144 50h-4v750h4v-750zM104 50h-4v750h4v-750zM124 50h-4v750h4v-750zM0 800h24v-750h-24v750zM63 -98h19l16 -58q8 59 8 107v14h25v-14q0 -20 -1 -40t-4 -38l-13 -71h-26l-14 57l-15 -57h-27l-12 71q-2 15 -3.5 35t-1.5 43v14h24v-14
q0 -48 8 -107z" />
    <glyph glyph-name="x" unicode="x" 
d="M120 799h24v-750h-24v750zM44 50h-4v750h4v-750zM4 50h-4v750h4v-750zM104 48h-4v750h4v-750zM60 800h24v-750h-24v750zM72 -92l30 57h29l-43 -79l43 -84h-29l-30 62l-30 -62h-28l45 84l-45 79h28z" />
    <glyph glyph-name="y" unicode="y" 
d="M0 800h24v-750h-24v750zM64 50h-4v750h4v-750zM124 50h-4v750h4v-750zM144 50h-4v750h4v-750zM80 800h24v-750h-24v750zM72 -96l32 61h27l-46 -87v-76h-25v76l-46 87h27z" />
    <glyph glyph-name="z" unicode="z" 
d="M40 800h24v-750h-24v750zM4 50h-4v750h4v-750zM124 50h-4v750h4v-750zM144 50h-4v750h4v-750zM80 800h24v-750h-24v750zM55 -175h69v-23h-98v17l64 123h-62v23h88v-19z" />
    <glyph glyph-name="nonbreakingspace" unicode="&#xa0;" horiz-adv-x="500" 
 />
  </font>
</defs>
</svg>
